Terrie clark - CLARK TERRY - BEST OF CLARK TERRYUpload the album here : https://spoti.fi/2NHgn6b http://bit.ly/2N1UKIL http://bit.ly/2zueRLZ https://amzn.to/2N22qL1 https:/...

 
Terrie clarkTerrie clark - This complete Terri Clark discography also includes every single Terri Clark live album. All these spectacular Terri Clark albums have been presented below in chronological order. We have also included all original release dates with eachTerri Clark album as well as all original album covers. Every Terri Clark album listed below showcases the ...

Terri Clark. Terri Clark-Dougan is on Facebook. Join Facebook to connect with Terri Clark-Dougan and others you may know. Facebook gives people the power to share and makes the world more open and connected.I've had dreams left so broken. There was no chance they'd ever come true. It ain't easy to see. But take it from me. There's no hell I haven't walked through. And I won't cross that line. 'Cause ... MUSIC Spotify Apple Youtube Amazon Little Drummer Boy The Highway It's Christmas... Cheers! Raising The Bar Some Songs Classic Roots and Wings The Long Way Home Terri Clark Live The Best of Terri Clark Life Goes On Greatest Hits Pain To Kill Fearless How I Feel Just The Same Terri… Girls lie, too. We don't care how much money you make. What you drive or what you weigh. Size don't matter anyway. Girls lie, too. Don't think you're the only ones. Who bend it, break it, stretch ... Something went wrong. There's an issue and the page could not be loaded. Reload page. 186K Followers, 562 Following, 2,341 Posts - See Instagram photos and videos from Terri Clark (@terriclarkmusic) Email +1 202.772.8504 LinkedIn. Print PDF vCard. Jump to. Overview. Expertise. Teressa “Terri” Y. Clark is a client relationship liaison in Sterne Kessler’s Biotechnology & Chemical Practice Group, where she assists with managing the workflow and filings for the prosecution of U.S. and foreign patent applications. She currently supports ...Share your videos with friends, family, and the worldView Terrie Clark’s profile on LinkedIn, the world’s largest professional community. Terrie has 1 job listed on their profile. See the complete profile on LinkedIn and discover Terrie’s ...Terri Clark. Country singer. For the Record …. Getting Discovered in Nashville. Selected discography. Sources. Terri Clark became something of a country music sensation in 1995 with the release of her debut platinum album, entitled Terri Clark.The first single, “ Better Things to Do ” was a number-one hit on the country charts. In the summer of 1996, she was …CRAIN,J. The plaintiffs, Terri Clark and Betty Clark, appeal a judgment sustaining a peremptory exception of prescription and dismissing their claims with prejudice. …Music video by Terri Clark performing Empty. (C) 2000 Mercury Records, a Division of UMG Recordings, Inc.Terri Clark was born on August 5, 1968 in Montreal, Canada into a family with a lot of country and folk roots. Although producers weren’t interested in traditional country at first, Teri persisted and eventually became one of the biggest country legends of the 1990’s.Official YouTube of country singer Terri Clark! New song, “Little Drummer Boy", is available now: https://strm.to/TCLittleDrummerBoyMay 16, 2023 · Terri Clark wrote her first song at age 11, and throughout her teenage years, worked hard at becoming a professional musician. Photo courtesy of Terri Clark. From that moment on, country music was all she thought about. She spent her time reading country music encyclopedias or watching her favourite country artists on television. She was hooked. Terri Clark has amassed a sizable net worth as a result of her singing career, with a net worth of $10 million. Childhood and Education. Terri Clark was born Terri Lynn Sauson in Montreal, Quebec, Canada on August 5, 1968. She is of …[Verse 1] Don't tell me the reason that you're calling Is to see if I'm alright since you've been gone 'Cause I know you and I know why we're talking You're wanting me to say I'm barely hanging on ...20th Century Masters - The Millennium Collection: The Best of Terri Clark · 2006. I Just Wanna Be Mad. Pain to Kill · 1995. Poor, Poor Pitiful Me. Just the Same · 1995. You're Easy On the Eyes. Terri Clark: Greatest Hits · 1995. I Wanna Do It All. Pain to Kill · 1995.Mar 25, 2019 · Updated on 03/25/19. Born in Montreal on August 5, 1968, and raised in Medicine Hat, Alberta, Terri Clark is a Canadian import who took America's country music scene by storm in the '90s. Clark grew up in a musical family. Her grandparents, Ray and Betty Gauthier, were country stars in Canada, opening for the likes of Johnny Cash, George Jones ... Sep. 21, 2024. Versailles, OH. BMI Event Center. set reminder. tickets. request a show. TOUR DATES TERRI CLARK MEET & GREETS Meet & Greets with Terri …Filename F:\EAC Rips\Terri Clark - 1995 - Terri Clark\10 - The Inside Story.wav Pre-gap length 0:00:01.24 Peak level 100.0 % Track quality 100.0 % Test CRC BB7A1597 Copy CRC BB7A1597 Accurately ripped (confidence 3) [16F83BAB] Copy OK Track 11 Filename F:\EAC Rips\Terri Clark - 1995 - Terri Clark\11 - Was There A Girl On Your Boys' Night Out.wavBIO. Hailing from Medicine Hat, Alberta, Canada, Terri Clark got her start by playing for tips at Tootsie’s Orchid Lounge, a legendary honky-tonk bar across the alley …Girls Lie Too. " Girls Lie Too " is a song written by Tim Nichols, Kelley Lovelace and Connie Harrington, and recorded by Canadian country music singer Terri Clark. It was released to country radio on April 19, 2004, as the sole single to Clark's album Greatest Hits 1994–2004. "Girls Lie Too" was one of two songs recorded for the compilation ...Oct 25, 2009 · Terri Clark's official music video for 'Dirty Girl'. Click to listen to Terri Clark on Spotify: http://smarturl.it/TECSpot?IQid=GirlAs featured on Terri Clar... Best of Terri Clark: https://goo.gl/NEQqtGSubscribe here: https://goo.gl/zBF4TFMusic video by Terri Clark performing Northern Girl. (P) 2011 Bare Track Recor...Oct 25, 2009 · Terri Clark's official music video for 'Dirty Girl'. Click to listen to Terri Clark on Spotify: http://smarturl.it/TECSpot?IQid=GirlAs featured on Terri Clar... Searching for Terri Clark's agent, manager, or publicist? Find Terri Clark's management team contact info (email address and phone), booking price, and more here. Born as Terri Lynne Clark on August 5, 1968, in Montreal, Canada, Terri Clark is a Canadian country music artist known for infusing pop hooks into her music wCLARK TERRY - BEST OF CLARK TERRYUpload the album here : https://spoti.fi/2NHgn6b http://bit.ly/2N1UKIL http://bit.ly/2zueRLZ https://amzn.to/2N22qL1 https:/...Terri Clark's official music video for 'Dirty Girl'. Click to listen to Terri Clark on Spotify: http://smarturl.it/TECSpot?IQid=GirlAs featured on Terri Clar...Apr 28, 2023 · Terri Clark’s ability to connect with audiences on such a personal level is truly remarkable, making “Every Time I Cry” one of her greatest hits of all time. 9. “A Little Gasoline”. “A Little Gasoline” is a powerful anthem that embodies the spirit of freedom and rebellion. (Country) Terri Clark - Дискография 1995-2018 (16 релизов), MP3, 148-320 kbps » Country, Bluegrass (lossy) :: RuTracker.orgDec 8, 2020 · Share your videos with friends, family, and the world Authentic song at Loretta Lynn & Conway TwittyTake a trip back to the 1990s and revisit these unforgettable Terri Clark songs that took country music by storm. 1. “If I Were You”. Driven by thoughtful and poetic lyrics, Clark reminds a ...Terri Clark. Terri Clark, singer, songwriter (b Terri Lynn Sauson at Montréal 4 Aug 1968). Terri Clark's grandparents living in Montréal, Ray and Betty Gauthier, were stars of the Canadian country music circuit. Clark's appreciation for country was heightened during her adolescence in Medicine Hat, Alta, and, at age 18, she elected to follow ...Contact Terri directly. Join to view full profile. I am an accomplished program planner, trainer and facilitator who has been providing education and training for over 30 years. Throughout my ...Nov 18, 2022. 2 min to read. The Louisiana Department of Children and Family Services Deputy Secretary Terri Ricks answers a question during a hearing of the …Fri 7:00 PM · Crown Uptown Theatre. Ticketmaster. VIEW TICKETS. Best of Terri Clark: https://goo.gl/NEQqtGSubscribe here: …Terri Clark laughs loudly over the phone from her vacation spot in cottage country, somewhere in Ontario. In a few weeks, she'll be inducted into the Canadian Country Music Hall of Fame during the ...20th Century Masters - The Millennium Collection: The Best of Terri Clark · 2006. I Just Wanna Be Mad. Pain to Kill · 1995. Poor, Poor Pitiful Me. Just the Same · 1995. You're Easy On the Eyes. Terri Clark: Greatest Hits · 1995. I Wanna Do It All. Pain to Kill · 1995.Terri Clark started out singing Christmas songs and then she came out and started playing her classics. She is always great and I will definitely go see her again. Love it all!! Rating: 5 out of 5 Awesome concert by Robyn Jarvis on 2022-12-12 Club Regent Event Centre - Winnipeg. Terri Clark is an amazing performer and a fantastic ambassador for ... 3:03. New recommendations. Terri Clark is the debut studio album by the Canadian country music singer Terri Clark, released on August 8, 1995, on Mercury Nashville Records. It was certified platinum by the RIAA and 3× platinum by the CRIA. The album produced four singles in both Canada and the U.S.: "Better Things to Do", "When Boy Meets Girl ... Terri Clark is the debut studio album by the Canadian country music singer Terri Clark, released on August 8, 1995, on Mercury Nashville Records. It was certified platinum by the RIAA and 3× Platinum by the CRIA.Terri Clark gets real about her 20-plus years in country music Clark continued releasing music and in 2004, she made history by becoming the first Canadian woman member of the Grand Ole Opry.Canadian country music stars Terri Clark and Paul Brandt announced Thursday they will be hitting the road later this year. The Homecoming ’23 Tour kicks off with shows on Nov. 1 and 2 in Yorkton, SK and wraps up on Dec. 2 in Belleville, ON.. Tickets go on sale to the general public beginning at 10 a.m. local time on May 18.Renowned French Canadian singer Diane Dufresne, veteran jazz pianist Dr. Oliver Jones, country music superstar Terri Clark and rock legends Trooper will all be honoured for their astounding contributions to Canada’s music history live and in-person on May 18, 2023 at Studio Bell, home to the National Music Centre (NMC) in Calgary, Alberta.Terri Clark Greatest Hits - Better Things To Do, She Didn't Have Time, Now That I Found You, Poor Poor Pitiful Me - Country Music Playlist 2022[00:00] - Bett...Today, two of Canada’s most dynamic country music artists and award-winning, chart-topping entertainers, Paul Brandt and Terri Clark announced that they will embark on the co-headlining “Homecoming ’23 Tour,” - an intimate acoustic tour set to travel across Canada this fall. The multi-platinum selling Canadian Country Music Hall of Fame inductees, friends and accomplished …Today, two of Canada’s most dynamic country music artists and award-winning, chart-topping entertainers, Paul Brandt and Terri Clark announced that they will embark on the co-headlining “Homecoming ’23 Tour,” – an intimate acoustic tour set to travel across Canada this fall. The multi-platinum selling Canadian Country Music Hall of ...Terri Clark is a Canadian country music artist who has a net worth of $10 million. Terri Clark was born in Montreal, Quebec, Canada in August 1968. She moved to Nashville, Tennessee after ...Rebecca (Terrie) Clark, MSN-FNP – AppHealthCare. I earned my MSN-FNP through Duke University School of Nursing, Family Nurse Practitioner Program and later my Doctor of Nursing Practice at ETSU. I obtained my BSN at UNC Greensboro. My work experience is primary care for the entire family and have worked in private practice and in public ...Today, two of Canada’s most dynamic country music artists and award-winning, chart-topping entertainers, Paul Brandt and Terri Clark announced that they will embark on the co-headlining “Homecoming ’23 Tour,” - an intimate acoustic tour set to travel across Canada this fall. The multi-platinum selling Canadian Country Music Hall of Fame inductees, friends and accomplished …Terri Clark To Be Inducted into the Canadian Music Hall of Fame. March 14, 2023. The Canadian Academy of Recording Arts and Sciences …Girls Lie Too. " Girls Lie Too " is a song written by Tim Nichols, Kelley Lovelace and Connie Harrington, and recorded by Canadian country music singer Terri Clark. It was released to country radio on April 19, 2004, as the sole single to Clark's album Greatest Hits 1994–2004. "Girls Lie Too" was one of two songs recorded for the compilation ...Girls lie, too. We don't care how much money you make. What you drive or what you weigh. Size don't matter anyway. Girls lie, too. Don't think you're the only ones. Who bend it, break it, stretch ...Best of Terri Clark: https://goo.gl/NEQqtGSubscribe here: https://goo.gl/zBF4TFMusic video by Terri Clark performing You're Easy On The Eyes. (C) 1998 Mercur... Best of Terri Clark: https://goo.gl/NEQqtGSubscribe here: https://goo.gl/zBF4TFMusic video by Terri Clark performing You're Easy On The Eyes. (C) 1998 Mercur... Ticketmaster. VIEW TICKETS. Music video by Terri Clark performing Better Things To Do. (C) 1995 Mercury Records.Terri Clark is not due to play near your location currently - but they are scheduled to play 14 concerts across 2 countries in 2023-2024. View all concerts. Buy tickets for Terri Clark concerts near you. See all upcoming 2023-24 tour dates, support acts, reviews and venue info.Marketed as Nashville’s first Female Hat Act, Terri Clark took awhile to loosen up and fully explore her artistic personality. Her career trajectory (thus far) is traced on 2008’s 18-track Definitive Collection. While Clark has had other best-of packages, this anthology deserves notice for presenting her most representative work in coherent ...Terri Clark has amassed a sizable net worth as a result of her singing career, with a net worth of $10 million. Childhood and Education. Terri Clark was born Terri Lynn Sauson in Montreal, Quebec, Canada on August 5, 1968. She is of …Terri Clark is an award-winning Canadian country music singer. She's will be inducted into the Canadian Music Hall of Fame at a Calgary event this week. (Ryan Nolan/Submitted by Charlotte Thompson ...Greatest Hits 1994-2004 Review by Jason MacNeil. Canadian singer Terri Clark is often compared to Shania Twain mainly because the two are Canadian, started around the same time, and began their careers in country music. But while Twain went on to uber status with a mainstream merging of country and pop and rock, Clark slowly built her career on ...07. I Wish He'd Been Drinkin' Whiskey (Album Version) Terri Clark. Life Goes On. 04:19. Composers: Bob DiPiero - Karyn Rochelle. Access the complete album info (12 songs) This Compilation ℗ 2004 Mercury Records, a Division of UMG Recordings, Inc. 01-01-2004. 3:03. New recommendations. Terri Clark is the debut studio album by the Canadian country music singer Terri Clark, released on August 8, 1995, on Mercury Nashville Records. It was certified platinum by the RIAA and 3× platinum by the CRIA. The album produced four singles in both Canada and the U.S.: "Better Things to Do", "When Boy Meets Girl ... Email +1 202.772.8504 LinkedIn. Print PDF vCard. Jump to. Overview. Expertise. Teressa “Terri” Y. Clark is a client relationship liaison in Sterne Kessler’s Biotechnology & Chemical Practice Group, where she assists with managing the workflow and filings for the prosecution of U.S. and foreign patent applications. She currently supports ...apple amazon youtube spotify 1. better things to do 2. when boy meets girl 3. if i were you 4. poor, poor pitiful me 5. emotional girl 6. now that i found you 7. you're easy on the eyes 8. everytime i cry 9. a little gasoline 10. i just… Like her contemporary Shania Twain, singer/songwriter Terri Clark came storming out of Canada and captured the attention of America's country music industry in the mid-'90s. Where Twain incorporated more rock & roll elements into her music, Clark largely stayed close to her country roots, even if those roots were more new country than hardcore ... Terri Clark Classic -Two More Bottles of WineJust a short vid I took @ Terri Clark's concert in July. She nailed this Reba impersonation! Clark was born Terri Lynn Sauson on August 5, 1968, in Montreal, Quebec, Canada. Her family eventually settled in Medicine Hat, Alberta, where she was raised. She is the third of four children: she has a younger brother, Peter, an older sister, Kim, and younger sister, Tina. Clark's grandparents, Ray and Betty Gauthier, were both noted Canadian ... Contact Terri directly. Join to view full profile. I am an accomplished program planner, trainer and facilitator who has been providing education and training for over 30 years. Throughout my ...Regular price$40.00. Regular price$40.00 Sale price$40.00. Unit price/ per. Terri Clark Hits Black Photo Tee. Terri Clark Hits Black Photo Tee. Regular price$25.00. Regular price$25.00 Sale price$25.00. Unit price/ per. Pride Ringer Tee.12 songs • 40 minutes Terri Clark is the debut studio album by the Canadian country music singer Terri Clark, released on August 8, 1995, on Mercury Nashville Records. It was certified platinum by the RIAA and 3× platinum by the CRIA. The album produced four singles in both Canada and the U.S.: "Better Things to Do", "When Boy Meets Girl ...Here, we look back at some of her finest moments with our pick of the 10 best Terry Clark songs of all time. 10. I Just Wanna Be Mad. As All Music notes, with a grab-you hook and tough-woman stance, I Just Wanna Be Mad was an obvious choice to open the 2003 album, Pain to Kill, even if the tough woman in question does believe in standing by …Like her contemporary Shania Twain, singer/songwriter Terri Clark came storming out of Canada and captured the attention of America's country music industry in the mid-'90s. Where Twain incorporated more rock & roll elements into her music, Clark largely stayed close to her country roots, even if those roots were more new country than hardcore honky tonk.Filename F:\EAC Rips\Terri Clark - 1995 - Terri Clark\10 - The Inside Story.wav Pre-gap length 0:00:01.24 Peak level 100.0 % Track quality 100.0 % Test CRC BB7A1597 Copy CRC BB7A1597 Accurately ripped (confidence 3) [16F83BAB] Copy OK Track 11 Filename F:\EAC Rips\Terri Clark - 1995 - Terri Clark\11 - Was There A Girl On Your Boys' Night Out.wavTerrie Diaz is a former financial analyst who worked with a law firm in the south. ... Terrie was born Catherine “Terrie” Clark on the 19th of February 1963 in Nashville, Tennessee.A2la, Journeyman distillery, Walmart malone, Emoryhealthcare, Union university jackson tn, Walmart tumeric, Lake country lutheran, Pizza ranch green bay, Vocelli's, Dread lock shop near me, Cj trailways, 7brews, Iglesia cristiana near me, Skipthedrive

Best of Terri Clark: https://goo.gl/NEQqtG Subscribe here: https://goo.gl/zBF4TF Music video by Terri Clark performing Poor, Poor Pitiful Me. (C) 1996 Merc... Search. Sign in . New recommendations Song Video 1/0. Search. Info. Shopping. Tap to unmute. Autoplay. Add similar content to the end of the queue. Autoplay .... Gish furniture

Terrie clarksilver daddie

May 11, 2023 · Modified date: Thursday, May 11th 2023 - 7:15 am. Canadian country music stars Terri Clark and Paul Brandt announced Thursday they will be hitting the road later this year. The Homecoming ’23 Tour kicks off with shows on Nov. 1 and 2 in Yorkton, SK and wraps up on Dec. 2 in Belleville, ON. Tickets go on sale to the general public beginning at ... Apr 11, 2019 · Terri Clark laughs loudly over the phone from her vacation spot in cottage country, somewhere in Ontario. In a few weeks, she'll be inducted into the Canadian Country Music Hall of Fame during the ... Explore Terri Clark's discography including top tracks, albums, and reviews. Learn all about Terri Clark on AllMusic. Terri Clark. Terri Clark, singer, songwriter (b Terri Lynn Sauson at Montréal 4 Aug 1968). Terri Clark's grandparents living in Montréal, Ray and Betty Gauthier, were stars of the Canadian country music circuit. Clark's appreciation for country was heightened during her adolescence in Medicine Hat, Alta, and, at age 18, she elected to follow ...Mar 25, 2019 · Updated on 03/25/19. Born in Montreal on August 5, 1968, and raised in Medicine Hat, Alberta, Terri Clark is a Canadian import who took America's country music scene by storm in the '90s. Clark grew up in a musical family. Her grandparents, Ray and Betty Gauthier, were country stars in Canada, opening for the likes of Johnny Cash, George Jones ... View the profiles of people named Terrie L Clark. Join Facebook to connect with Terrie L Clark and others you may know. Facebook gives people the power...Best of Terri Clark: https://goo.gl/NEQqtG Subscribe here: https://goo.gl/zBF4TF Music video by Terri Clark performing If I Were You. (C) 1995 Mercury Reco...Clark Schaefer Hackett. Nov 2008 - Present14 years 10 months. In my administrative role I: Assist with recruiting, continuing education, and train new employees time submission. Develop evaluation ...Best of Terri Clark: https://goo.gl/NEQqtG Subscribe here: https://goo.gl/zBF4TF Music video by Terri Clark performing Poor, Poor Pitiful Me. (C) 1996 Merc... Search. Sign in . New recommendations Song Video 1/0. Search. Info. Shopping. Tap to unmute. Autoplay. Add similar content to the end of the queue. Autoplay ...Terrie Clark Owner/Property Manager and Broker at Alliance Property Management Colorado Springs, CO. Terrie Clark Human Resources Manager at Arthur Chapman St Paul, MN ...Aug. 10. Saturday 07:00 PMSat 7:00 PM. Open additional information for Welch, MN Treasure Island Amphitheater Brooks & Dunn: REBOOT Tour 2024. 8/10/24, 7:00 PM. Welch, MN Treasure Island Amphitheater Brooks & Dunn: REBOOT Tour 2024. Find tickets. Welch, MN Treasure Island Amphitheater Brooks & Dunn: REBOOT Tour 2024.Terrie Clark is on Facebook. Join Facebook to connect with Terrie Clark and others you may know. Facebook gives people the power to share and makes the world more open and connected.Music video by Terri Clark performing Better Things To Do. (C) 1995 Mercury Records. Music video by Terri Clark performing Better Things To Do. (C) 1995 Mercury Records. Search. Sign in . New recommendations Song Video Search. Info. Shopping. Tap to unmute. Autoplay. Add similar content to the end of the queue ...Terri Clark. 681,305 likes · 3,900 talking about this. Official Facebook page of Terri Clark! http://www.TerriClark.com @TerriClarkMusic.TERRI CLARK - I WANNA DO IT ALL (I Wanna Do It All) Film Director: Milton Lage Producer: Byron Gallimore Associated Performer: Aubrey Haynie, Paul Franklin, B. James Lowry, Leslie Satcher, John Wesley Ryles, Kenny Greenberg, Lonnie Wilson, Glenn Worf, Steve Nathan, Brent Mason Film Producer: Sarah Trahern Studio Personnel: …(Singer, Songwriter) Terri Clark is an award-winning singer. She is renowned for the album Better Things to Do. Updated On February 2, 2024 | … Terri Clark. 681,300 likes · 3,961 talking about this. Official Facebook page of Terri Clark! http://www.TerriClark.com @TerriClarkMusic Terri Clark's official music video for 'Dirty Girl'. Click to listen to Terri Clark on Spotify: http://smarturl.it/TECSpot?IQid=GirlAs featured on Terri Clar...Music video by Terri Clark performing Girls Lie Too: Closed Captionedwith Connie Harrington, Kelley Lovelace, Tim Nichols(C) 2004 Mercury Records, a Division...Terri Clark is a Canadian country music singer and songwriter. Find out her latest news, music, and upcoming shows in 2024 across the US and Canada.Terri Lynn Sauson (born August 5, 1968), known professionally as Terri Clark, is a Canadian country music artist who has had success in both Canada and the United States. Signed to Mercury Records in 1995, she released her self-titled debut that year.Told me somethin' the other day. I'd like to pass it on to you. 'Cause I believe what he said to be true, he said. [Chorus] We're here for a good time, not a long time, not a long time. So have a ... 3:03. New recommendations. Terri Clark is the debut studio album by the Canadian country music singer Terri Clark, released on August 8, 1995, on Mercury Nashville Records. It was certified platinum by the RIAA and 3× platinum by the CRIA. The album produced four singles in both Canada and the U.S.: "Better Things to Do", "When Boy Meets Girl ... Terrie Diaz is a former financial analyst who worked with a law firm in the south. ... Terrie was born Catherine “Terrie” Clark on the 19th of February 1963 in Nashville, Tennessee.Terri Clark (born Terri Lynn Sauson; August 5, 1968) is a Canadian country music artist who has had success in both Canada and the United States. Signed to Mercury Records in 1995, she released her self-titled debut that year. Both it and its two follow-ups, ...Jan 2010 - Present13 years 7 months. Colorado Springs, CO. Offer full service property management and real estate services for residential properties. See who you know in common. Get introduced ...[Verse 1] Don't tell me the reason that you're calling Is to see if I'm alright since you've been gone 'Cause I know you and I know why we're talking You're wanting me to say I'm barely hanging on ...Terri Clark has amassed a sizable net worth as a result of her singing career, with a net worth of $10 million. Childhood and Education. Terri Clark was born Terri Lynn Sauson in Montreal, Quebec, Canada on August 5, 1968. She is of …Terri Clark. Fri • Apr 26 • 8:00 PM Crown Uptown Theatre, Wichita, KS. Search Artist, Team or Venue. Official YouTube of country singer Terri Clark! New song, “Little Drummer Boy", is available now: https://strm.to/TCLittleDrummerBoy. terriclark.com and 5 more links. Subscribe. (Country) Terri Clark - Дискография 1995-2018 (16 релизов), MP3, 148-320 kbps » Country, Bluegrass (lossy) :: RuTracker.orgMay 11, 2023 · Modified date: Thursday, May 11th 2023 - 7:15 am. Canadian country music stars Terri Clark and Paul Brandt announced Thursday they will be hitting the road later this year. The Homecoming ’23 Tour kicks off with shows on Nov. 1 and 2 in Yorkton, SK and wraps up on Dec. 2 in Belleville, ON. Tickets go on sale to the general public beginning at ... Take a trip back to the 1990s and revisit these unforgettable Terri Clark songs that took country music by storm. 1. “If I Were You”. Driven by thoughtful and poetic lyrics, Clark reminds a ...Terri Clark Greatest Hits - Better Things To Do, She Didn't Have Time, Now That I Found You, Poor Poor Pitiful Me - Country Music Playlist 2022[00:00] - Bett...20th Century Masters - The Millennium Collection: The Best of Terri Clark · 2006. I Just Wanna Be Mad. Pain to Kill · 1995. Poor, Poor Pitiful Me. Just the Same · 1995. You're Easy On the Eyes. Terri Clark: Greatest Hits · 1995. I Wanna Do It All. Pain to Kill · 1995.Best of Terri Clark: https://goo.gl/NEQqtGSubscribe here: https://goo.gl/zBF4TFMusic video by Terri Clark performing The One. (P) 2011 Bare Track Records, a ...Welcome to Terri Clark's official online store. Visit to shop merchandise, apparel, accessories, and music. Stay up-to-date on the exclusive deals and product launches.Clark was born Terri Lynn Sauson on August 5, 1968, in Montreal, Quebec, Canada. Her family eventually settled in Medicine Hat, Alberta, where she was raised. She is the third of four children: she has a younger brother, Peter, an older sister, Kim, and younger sister, Tina. Clark's grandparents, Ray and Betty Gauthier, were both noted Canadian ...Country Gold, hosted by Terri Clark, is a music-intensive, fan-interactive program featuring special guest artists and country classics, airing on more than 200 radio stations. Country Gold, hosted by Terri Clark, is a music-intensive, fan-interactive program featuring special guest artists and country classics, airing on more than 100 radio stations.…07. I Wish He'd Been Drinkin' Whiskey (Album Version) Terri Clark. Life Goes On. 04:19. Composers: Bob DiPiero - Karyn Rochelle. Access the complete album info (12 songs) This Compilation ℗ 2004 Mercury Records, a Division of UMG Recordings, Inc. 01-01-2004.Terri Clark is a Canadian country music singer and songwriter. Find out her latest news, music, and upcoming shows in 2024 across the US and Canada.Terri (b Terri Lynn Sauson) Clark. Singer-songwriter, guitarist, b Montréal 4 Aug 1968. Terri Clark's maternal grandparents, Montreal-based singers Ray and Betty Gauthier, were well-known on the Canadian country music circuit. Clark's mother Linda was a folk singer. In 1976 Clark, with her mother and sister, moved first to Calgary and then to ...Jan 18, 2022 · Terrie Clark's passing at the age of 62 on Sunday, January 16, 2022 has been publicly announced by Webb-Shinkle Mortuary - Clearwater in Clearwater, KS.Legacy invites you to offer condolences and shar Filename F:\EAC Rips\Terri Clark - 1995 - Terri Clark\10 - The Inside Story.wav Pre-gap length 0:00:01.24 Peak level 100.0 % Track quality 100.0 % Test CRC BB7A1597 Copy CRC BB7A1597 Accurately ripped (confidence 3) [16F83BAB] Copy OK Track 11 Filename F:\EAC Rips\Terri Clark - 1995 - Terri Clark\11 - Was There A Girl On Your Boys' Night Out.wavTicketmaster. VIEW TICKETS. Music video by Terri Clark performing Better Things To Do. (C) 1995 Mercury Records.[Verse 1] Don't tell me the reason that you're calling Is to see if I'm alright since you've been gone 'Cause I know you and I know why we're talking You're wanting me to say I'm barely hanging on ...Contact Terri directly. Join to view full profile. I am an accomplished program planner, trainer and facilitator who has been providing education and training for over 30 years. Throughout my ...Terrie Clark-newman. #6501441746. Keller Williams Northern Michigan. Write Terrie Clark-newman 's 1st recommendation.. Six flags new england six flags, South texas health system edinburg, Gates fireplace, Rossler transmission, Chamberlins, Av med, Walmart rochester nh, Gleannloch pines golf club, Kincaid lake.